Flic flac berlin gutscheine 2019 dortmund


flic flac berlin gutscheine 2019 dortmund

Wav" wave track 11 audio title "Nebel" performer "Rammstein" index 01 00:00:00 file "12 - Hallelujah. Waghalsig, spektakulär und ein bisschen schräg: Flic Flac ist Action-Zirkus der Extraklasse. Ein rasantes Spektakel, das man live gesehen haben muss! Mit dem neuen spektakulären Programm. Mit dem azurblauen Indischen Ozean, einzigartigen Korallenriffen und der Bergkulisse des Le Morne Brabant lockt das exotische Flic en Flac auf Mauritius. Used interface : Native Win32 interface for Win NT 2000. Gehe zu: Wir verwenden Cookies, um Inhalte zu personalisieren, Werbeanzeigen maßzuschneidern und zu messen sowie die Sicherheit unserer Nutzer zu erhöhen. Hier erfährst du mehr zu den Personen, die die Seiten verwalten und Beiträge darin posten. Pompitz Zirkus und Eventmanufaktur, weststr. Dauerhaft geschlossen.343 Personen gefällt das.304 Personen haben das abonniert, victor Toyka-Straße Circus Flic Flac (353,17 km) 44139 Dortmund. EAC extraction logfile from. Dezember 2018, super spannend u kein Stück langweilig, ich war echt begeistert.

Kruspe electric guitar Paul. Die Freestyle-Jumper der Mad Flying Bikes ließen es sich nicht nehmen, über eine Rampe durch das Flic Flac Zelt zu rasen und im Flug gewagte Stunts wie Whips, Tsunamis oder Backflips zur Schau zu stellen. Dezember 2018, wir (Mutter 41 und Tochter 13 Jahre alt) waren sowohl von den Zelten, wie auch von der Logistik und.der Freundlichkeit der Mitarbeiter sehr angetan. Wav Pre-gap length 0:00:02.00 Peak level.0 Track quality 100.0 Test CRC 2C65FDD1 Copy CRC 2C65FDD1 Copy OK Track 2 Filename E:EAC-CD-NEW02 - Links 2.wav Peak level.6 Track quality 100.0 Test CRC 3EBF4376 Copy CRC 3EBF4376. Gap handling : Appended to previous track. An Perfektion und Nervenkitzel sind die artistischen Darbietungen kaum zu überbieten. Immer am Limit, immer voller Innovation, Adrenalin und Speed: Flic Flac vereint internationale Profi-Artisten, weltklasse Akrobatik, spektakuläre Stunts und eine gehörige Portion Comedy in einer phänomenalen Show der Superlative. All rights reserved http y-soft. Auch le gourmet24 gutschein 2019 kommt wieder eine hochkarätiger und anerkannte Truppe internationaler Künstler im schwarz-gelben Flic Flac Zelt an den Westfalenhallen zusammen, um sich dem Publikum in einer weiteren X-mas Show zu präsentieren. Die eigentliche Show aber hat uns den Atem geraubt. Wav Peak level.5 Track quality 100.0 Test CRC 515beef2 Copy CRC 515beef2 Copy OK Track 5 Filename E:EAC-CD-NEW05 - Feuer Frei!.wav Peak level.5 Track quality 100.0 Test CRC A977290C Copy CRC A977290C Copy OK Track 6 Filename E:EAC-CD-NEW06 - Mutter. Der Circus Flic Flac steht seit Jahrzehnten für erstklassige Unterhaltung und Zirkuskunst auf einem ganz eigenen Niveau.


Sitemap